Интервью
Обзоры альбомов
Новости
Подкасты
Репортажи
Главная » Подкасты

Arrhythmia podcast. Выпуск #10

Автор: | 08.01.201011 комментариев | просмотров 433

Наконец-то десятый выпуск увидел свет! Прошло три месяца со времени последнего выхода в эфир :) Извините, что заставил так долго ждать.
Треклист:

Cкачать в: mp3 (128 kbps, 57.7 MB), aac (~160 kbps, 72.8 MB), ogg (~160 kbps, 75.4 MB).

Upd

По просьбам трудящихся выкладываю содержимое cue файла для этого микса (не забудьте поменять расширение файла на то, которое вы скачали)

REM GENRE Electronic
REM DATE 2009
REM COMMENT
PERFORMER «Various Artists»
TITLE «Arrhythmia Sound. Podcast #10»
FILE «Arrhythmia Sound. Podcast #10.flac» WAVE
TRACK 01 AUDIO
TITLE «Tiefflug»
PERFORMER «Field Rotation»
INDEX 01 00:00:00
TRACK 02 AUDIO
TITLE «Dreiglanz»
PERFORMER «Markus Guentner»
INDEX 01 04:55:00
TRACK 03 AUDIO
TITLE «Morbid (Ex-Koded)»
PERFORMER «Empusae»
INDEX 01 11:20:00
TRACK 04 AUDIO
TITLE «Dubversion (Remix By Hecq)»
PERFORMER «Broken Note»
INDEX 01 18:41:00
TRACK 05 AUDIO
TITLE «The Narrators»
PERFORMER «DJ Hidden»
INDEX 01 24:20:00
TRACK 06 AUDIO
TITLE «Left Behind»
PERFORMER «Detritus»
INDEX 01 29:35:00
TRACK 07 AUDIO
TITLE «Waiting War»
PERFORMER «Access To Arasaka»
INDEX 01 33:52:00
TRACK 08 AUDIO
TITLE «Randomly Selected Drawbacks Of The Human Condition PT2 (Manipulated By Monsieur L’Antechrist)»
PERFORMER «ESA»
INDEX 01 38:14:00
TRACK 09 AUDIO
TITLE «Embers»
PERFORMER «The Kilimanjaro Darkjazz Ensemble»
INDEX 01 42:54:00
TRACK 10 AUDIO
TITLE «Blind City»
PERFORMER «Frank Riggio»
INDEX 01 46:48:00
TRACK 11 AUDIO
TITLE «Skin Clock»
PERFORMER «The Black Dog»
INDEX 01 52:16:00
TRACK 12 AUDIO
TITLE «In The Offing»
PERFORMER «Wisp»
INDEX 01 58:18:00

  • iSpite

    недавно наткнулся на этот сайт, подкаст порадовал, хотя вторая половина имхо поинтереснее будет, 1я уж больно басовая и какая-то брейксовая что-ли.

    • http://www.arrhythmiasound.com/ Quarck

      Спасибо за Ваш отзыв, могу порекомендовать послушать другие выпуски, может быть они больше понравятся ;)

  • ma4hem

    Отличный подкаст и отличная подборка треков. Спасибо.

    Еще было бы неплохо, если в треклисте было бы указано время начала композиции. А то, долго вычислял, что играет на 30 минуте.

    • http://www.arrhythmiasound.com/ Quarck

      Это моя больная тема :) Надо собраться да ко всем подкастам cue файлы сделать

  • http://deftones.ru Алексей

    Да, было бы неплохо куи к подкастам. Я раньше делал и даже тут выкладывал, но сейчас не получается что-то к последним :( Было бы здорово на самом деле чтоб Дмитрий сделал это.

  • http://www.arrhythmiasound.com/ Quarck

    Всё, обещаю, сегодня 18 января я это сделаю :)

  • http://deftones.ru Алексей

    Вот спасибо :) Я, конечно, не знаю, но похоже не я один хочу слушать твои, Дима, подкасты, разделенные на треки. Так что радуй и дальше интересными подборками отличной музыки, и уж совсем замечательно, если я куями — просто тебе проще их сделать, раз сам сводишь микс. СПАСИБО!

  • http://pchela-i-uley.ru/medonosnye-rasteniya/ Шилов

    десятый выпуск вообще жесть! меня от него колбасит по полной!!!

  • directics

    как всегда 5 баллов!

  • Billy

    понравилось. особенно порадовал товарищ Frank Riggio. буду качать унд слушать его. спасибо.

    • http://www.arrhythmiasound.com/ Quarck

      У этого товарища скоро новый альбом выходит, ждём с нетерпением :)