Интервью
Обзоры альбомов
Новости
Подкасты
Репортажи
Главная » Подкасты

Arrhythmia podcast. Выпуск #5

Автор: | 29.05.20093 комментария | просмотров 201

Пятый выпуск подкаста Arrhythmia Sound, как всегда вас ждёт только лучшая электронная музыка. В прошедшем месяце вышло довольно много релизов, поэтому звучать будут в основном новинки. Итак, треклист этого подкаста:

  • Atomatik13 — Labrinthine (Raw Version);
  • Displacer — Moon_Phase (Beefcake Remix);
  • Hecq — Steeltongued (Blackfilm Remix);
  • Blackfilm — Mahabharata;
  • Proem — Deadplate IV;
  • The Kilimanjaro Darkjazz Ensemble — Shadows;
  • Blamstrain — Untitled (Taho Remix);
  • SE — 23R0 & TH3 5T4R5 (Reconstructed By Flaque);
  • Cheju — Hikari;
  • Mint — Dead Pixel;
  • Kettel — Kitana;
  • Wisp — Hexenringe;

Cкачать в: mp3 (128 kbps, 55,8 MB), aac (~96 kbps, 43,8 MB), ogg (~96 kbps, 44,4 MB). Жду ваших отзывов.

  • Алексей

    Спасибо за отличную подборку. было бы здорово к этим подкастам CUE-лист добавлять, чтобы не только одним файлом слушать, но и на треки делить. А то в ластфм скроблится неправильно. Вот сваял cue-файл, если кому нужно:

    REM GENRE Electronic
    REM DATE 2009
    REM COMMENT "ExactAudioCopy v0.95b4"
    PERFORMER "Various Artists"
    TITLE "Arrhythmia Sound. Podcast #5"
    FILE "Arrhythmia Sound. Podcast #5.ogg" WAVE
    TRACK 01 AUDIO
    TITLE "Labrinthine (Raw Version)"
    PERFORMER "Atomatik13"
    INDEX 01 00:00:00
    TRACK 02 AUDIO
    TITLE "Moon_Phase (Beefcake Remix)"
    PERFORMER "Displacer"
    INDEX 01 03:54:50
    TRACK 03 AUDIO
    TITLE "Steeltongued (Blackfilm Remix)"
    PERFORMER "Hecq"
    INDEX 01 07:54:00
    TRACK 04 AUDIO
    TITLE "Mahabharata"
    PERFORMER "Blackfilm"
    INDEX 01 13:32:00
    TRACK 05 AUDIO
    TITLE "Deadplate IV"
    PERFORMER "Proem"
    INDEX 01 18:52:00
    TRACK 06 AUDIO
    TITLE "Shadows"
    PERFORMER "The Kilimanjaro Darkjazz Ensemble"
    INDEX 01 24:35:00
    TRACK 07 AUDIO
    TITLE "Untitled (Taho Remix)"
    PERFORMER "Blamstrain"
    INDEX 01 28:38:00
    TRACK 08 AUDIO
    TITLE "23R0 & TH3 5T4R5 (Reconstructed By Flaque)"
    PERFORMER "SE"
    INDEX 01 35:20:00
    TRACK 09 AUDIO
    TITLE "Hikari"
    PERFORMER "Cheju"
    INDEX 01 40:38:50
    TRACK 10 AUDIO
    TITLE "Dead Pixel"
    PERFORMER "Mint"
    INDEX 01 43:15:50
    TRACK 11 AUDIO
    TITLE "Kitana"
    PERFORMER "Kettel"
    INDEX 01 48:17:00
    TRACK 12 AUDIO
    TITLE "Hexenringe"
    PERFORMER "Wisp"
    INDEX 01 53:24:00

  • Quarck

    Спасибо, Алексей!

  • Алексей

    Пожалуйста, Дмитрий!

    Для остальных тоже сделал и разместил, только вот к 4-му пока не получается, потому как не очень просто начало треков определить.