Интервью
Обзоры альбомов
Новости
Подкасты
Репортажи
Главная » Подкасты

Arrhythmia podcast. Выпуск #3

Автор: | 28.03.20091 комментарий | просмотров 183

aslogo-square

Новый выпуск подкаста Arrhythmia Sound, т.к. обзоров было мало, поэтому я включил некоторые дополнительные треки:

  • Bola — Surge2 (Octagon);
  • Geomatic — Dark Technology Ghost;
  • Mimetic Desire — Quimera;
  • Stendeck — Something Special Is Going To Happen;
  • Stendeck — Like Falling Crystals;
  • Mobthrow — Breakstar;
  • Point 7 — Hacker IP;
  • Infinite Scale — Cells;

Cкачать в: aac (~96 kbps, 29.4 MB), ogg (~96 kbps, 28.4 MB) и mp3 (128 kbps, 36.2 MB). Как всегда жду ваших отзывов.

  • Алексей

    CUE-файл для ogg, для других форматов меняйте название файла в строке FILE.

    REM GENRE Electronic
    REM DATE 2009
    REM COMMENT "ExactAudioCopy v0.95b4
    "PERFORMER "Various Artists
    "TITLE "Arrhythmia Sound. Podcast #3 (03.2009)
    "FILE «Arrhythmia Sound. Podcast #3.ogg» WAVE
    TRACK 01 AUDIO
    TITLE "Surge2 (Octagon)
    " PERFORMER "Bola
    " INDEX 01 00:00:00
    TRACK 02 AUDIO
    TITLE "Dark Technology Ghost
    " PERFORMER "Geomatic
    " INDEX 01 05:16:00
    TRACK 03 AUDIO
    TITLE "Quimera
    " PERFORMER "Mimetic Desire
    " INDEX 01 10:45:80
    TRACK 04 AUDIO
    TITLE "Something Special Is Going To Happen
    " PERFORMER "Stendeck
    " INDEX 01 14:51:00
    TRACK 05 AUDIO
    TITLE "Like Falling Crystals
    " PERFORMER "Stendeck
    " INDEX 01 19:33:50
    TRACK 06 AUDIO
    TITLE "Breakstar
    " PERFORMER "Mobthrow
    " INDEX 01 23:14:00
    TRACK 07 AUDIO
    TITLE "Hacker IP
    " PERFORMER "Point 7
    " INDEX 01 28:26:50
    TRACK 08 AUDIO
    TITLE "Cells
    " PERFORMER "Infinite Scale
    " INDEX 01 33:09:00

    Спасибо, Дмитрий, за отличные подкасты!