Интервью
Обзоры альбомов
Новости
Подкасты
Репортажи
Главная » Подкасты

Arrhythmia podcast. Выпуск #2

Автор: | 27.02.20094 комментария | просмотров 203

Настало время для очередного подкаста Arrhythmia Sound. Вы этом выпуске вы услышите следующие треки:

  • Yagya — Rigning ?tta;
  • Danieto — Ocaso Desierto;
  • Yasume — 2112 Crescent Nights;
  • Bitcrush — Drop Entitled;

Cкачать в: aac (~96 kbps, 14.46 MB), ogg (~96 kbps, 15.95 MB) и mp3 (128 kbps, 19.30 MB). Жду ваших отзывов.

  • Алексей

    CUE для mp3, для подкастов в других форматах меняйте название файла (скорее расширение) в строке FILE:

    REM GENRE Electronic
    REM DATE 2009
    REM COMMENT "ExactAudioCopy v0.95b4
    "PERFORMER "Various Artists
    "TITLE "Arrhythmia Sound. Podcast #2 (02.2009)
    "FILE «Arrhythmia_Sound._Podcast__2.mp3» WAVE
    TRACK 01 AUDIO
    TITLE "Rigning Atta
    " PERFORMER "Yagya
    " INDEX 01 00:00:00
    TRACK 02 AUDIO
    TITLE "Ocaso Desierto
    " PERFORMER "Danieto
    " INDEX 01 05:05:50
    TRACK 03 AUDIO
    TITLE "2112 Crescent Heights
    " PERFORMER "Yasume
    " INDEX 01 09:06:00
    TRACK 04 AUDIO
    TITLE "Drop Entitled
    " PERFORMER "Bitcrush
    " INDEX 01 14:24:00

  • posadboy

    К сожалению не успел заполучить первые два выпуска Вашего подкаста. Есть ли еще возможность это сделать?

    • http://www.arrhythmiasound.com/ Quarck

      posadboy Все выпуски моего подкаста доступны на quarck.podfm.ru

  • posadboy

    уже забрал) большущее спасибо!