Интервью
Обзоры альбомов
Новости
Подкасты
Репортажи
Главная » Подкасты

Arrhythmia podcast. Выпуск #11

Автор: | 11.04.20103 комментария | просмотров 273

Трек лист:

01. Flint Glass — Al Takwi
02. Architect — Unhuman
03. Deru — Peanut Butter And Patience
04. Oxyd — Frozen
05. Diaphane — Platinium
06. Angina P — I Break Your Beat
07. Another Electronic Musician — Inflationary
08. Melorman — Small Arms To Hold
09. Funckarma — Lawk
10. klyxn — Valids
11. Mick Chilliage — Under The Ice
12. OTX — Anna

cue

REM GENRE Electronic
REM DATE 2010
REM COMMENT
PERFORMER «Various Artists»
TITLE «Arrhythmia Sound. Podcast #11»
FILE «Arrhythmia Sound. Podcast #11.flac» WAVE
TRACK 01 AUDIO
TITLE «Al Takwi»
PERFORMER «Flint Glass»
INDEX 01 00:00:00
TRACK 02 AUDIO
TITLE «Unhuman»
PERFORMER «Architect»
INDEX 01 05:45:00
TRACK 03 AUDIO
TITLE «Peanut Butter And Patience»
PERFORMER «Deru»
INDEX 01 10:50:00
TRACK 04 AUDIO
TITLE «Frozen»
PERFORMER «Oxyd»
INDEX 01 15:25:00
TRACK 05 AUDIO
TITLE «Platinium»
PERFORMER «Diaphane»
INDEX 01 20:55:00
TRACK 06 AUDIO
TITLE «I Break Your Beat»
PERFORMER «Angina P»
INDEX 01 24:50:00
TRACK 07 AUDIO
TITLE «Inflationary»
PERFORMER «Another Electronic Musician»
INDEX 01 30:06:00
TRACK 08 AUDIO
TITLE «Small Arms To Hold»
PERFORMER «Melorman»
INDEX 01 33:49:00
TRACK 09 AUDIO
TITLE «Lawk»
PERFORMER «Funckarma»
INDEX 01 38:30:00
TRACK 10 AUDIO
TITLE «Valids»
PERFORMER «klyxn»
INDEX 01 45:48:00
TRACK 11 AUDIO
TITLE «Under The Ice»
PERFORMER «Mick Chilliage»
INDEX 01 49:06:00
TRACK 12 AUDIO
TITLE «Anna»
PERFORMER «OTX»
INDEX 01 56:45:00

Скачать в: mp3 (128 kbps, 58.3Mb), ogg (~160 kbps, 79.1 Mb), aac (~160 kbps, 74.8 Mb)

  • Аноним

    ммммм...Анна...Спасибо!)

  • directics

    ммммм...Анна...Спасибо!)

  • Billy

    Кликсн — это да. это мощно.