Interviews
Reviews
News
Podcasts
Reports
Home » Podcasts

Arrhythmia Podcast #18

Submitted by: | 28.07.20125 Comments | 297 views

В этом выпуске вы услышите треки от Frog Pocket, Ametsub, Repeated Measures, N, Tokee, Kangding Ray, To Travel Without Certain Destination, Absent Without Leave, Funckarma, BT, а также только для читателей Аритмии два трека с нового альбома Yagya

Скачать в: mp3, ogg, aac

Cue

PERFORMER «Arrhythmia Sound»
TITLE «Podcast №18»
FILE «Arrhythmia Podcast 18.mp3» MP3
TRACK 01 AUDIO
TITLE «Crow Hill Jig»
PERFORMER «Frog Pocket»
INDEX 01 00:00:00
TRACK 02 AUDIO
TITLE «Hellhorse»
PERFORMER «N»
INDEX 01 06:57:00
TRACK 03 AUDIO
TITLE «Rufouslow»
PERFORMER «Ametsub»
INDEX 01 10:30:00
TRACK 04 AUDIO
TITLE «Faded Photographs»
PERFORMER «Absent Without Leave»
INDEX 01 16:10:00
TRACK 05 AUDIO
TITLE «White Rose»
PERFORMER «Repeated Measures»
INDEX 01 20:45:00
TRACK 06 AUDIO
TITLE «Cold Hands»
PERFORMER «Yagya»
INDEX 01 24:10:00
TRACK 07 AUDIO
TITLE «Seven-Hundred-Thirty-Nine»
PERFORMER «BT»
INDEX 01 28:50:00
TRACK 08 AUDIO
TITLE «Elaztiq Jupiter»
PERFORMER «Funckarma»
INDEX 01 32:35:00
TRACK 09 AUDIO
TITLE «Reverbs And Delays»
PERFORMER «Yagya»
INDEX 01 38:26:00
TRACK 10 AUDIO
TITLE «Oise»
PERFORMER «Kangding Ray»
INDEX 01 42:45:00
TRACK 11 AUDIO
TITLE «Wisenheimer (Mattan Remix)»
PERFORMER «Tokee»
INDEX 01 47:47:00
TRACK 12 AUDIO
TITLE «By No Means (Of Transportation) Necessary»
PERFORMER «To Travel Without Certain Destination»
INDEX 01 51:29:00

Tags: , , , ,
  • Psynoise

    качнуть бы мп3шкой)

    • http://www.arrhythmiasound.com/ Quarck

      Ребят, всё будет, кое-как успел подкаст сделать. Выложу во всех форматах чуть позже. Лучше напишите что понравилось или нет

  • http://twitter.com/posadboy Igorrrrrrrrrrrrrrrrr

    ощень хороший выпускь, спасибо! ягья awesome, концовочка awesome!

    • http://www.arrhythmiasound.com/ Quarck

      Спасибо!

  • Eugene

    Выпуск в самом деле шикарный! спасибо!