Interviews
Reviews
News
Podcasts
Reports
Home » Podcasts

Arrhythmia podcast. Выпуск #1

Submitted by: | 02.02.20092 Comments | 206 views

Теперь каждый месяц будет выходить подкаст, в котором вы услышите треки с альбомов, рецензии на которые я делал. Итак, в этом выпуске:

  • Digitonal — Wide-Eyed, Wrapped In Love;
  • Secede — Born In A Tropical Swamp;
  • Zentreirt Ins Antlitz — Where Their Dreams Live;
  • Helios — Shoulder To Hand;
  • Port-Royal — Leitmotiv/Glasnost;

Скачать в aac, ogg, mp3. Прошу оставлять свои замечания и комментарии

  • Pavel

    Спасибо, очень приятное дополнение к рецензиям. И выбор треков тоже очень хороший, в одном ключе звучат.

  • Алексей

    CUE для mp3, для подкастов в других форматах меняйте название файла (скорее расширение) в строке FILE:

    REM GENRE Electronic
    REM DATE 2009
    REM COMMENT "ExactAudioCopy v0.95b4
    "PERFORMER "Various Artists
    "TITLE "Arrhythmia Sound. Podcast #1 (02.2009)
    "FILE «Quarck_-_Podcast_1.mp3» WAVE
    TRACK 01 AUDIO
    TITLE "Wide-Eyed, Wrapped In Love
    " PERFORMER "Digitonal
    " INDEX 01 00:00:00
    TRACK 02 AUDIO
    TITLE "Born In A Tropical Swamp
    " PERFORMER "Secede
    " INDEX 01 05:21:50
    TRACK 03 AUDIO
    TITLE "Where Their Dreams Live
    " PERFORMER "Zentriert ins Antlitz
    " INDEX 01 14:41:00
    TRACK 04 AUDIO
    TITLE "Shoulder To Hand
    " PERFORMER "Helios
    " INDEX 01 20:41:50
    TRACK 05 AUDIO
    TITLE "Leitmotiv/Glasnost
    " PERFORMER "Port-Royal
    " INDEX 01 25:52:00