Interviews
Reviews
News
Podcasts
Reports
Home » Podcasts, Misc

Микс для Headphone Commute

Submitted by: | 31.08.20097 Comments | 447 views

Специально для Headphone Сommute я сделал эмбиентый микс. Вот треклист:

    Loscil – Motoc (Plume, Kranky)

 

    Murcof – Cielo (Cosmos, Leaf)

 

    Funckarma – Amon Velvet (Psar Dymog, Symbolic Interaction)

 

    Hecq – Never Leave (Night Falls, Hymen Records)

 

    Lusine ICL – 520 At 8-30 (Language Barrier, Hymen Records)

 

    Marc Leclair – 64e Jour (Musique Pour 3 Femmes Enceintes, Mutek_Rec)

 

    Maps + Diagrams – Ouluj?rvi (Lhasa Apso, Smallfish)

 

    Point 7 – 15th Of July (What?, Toytronic)

 

    Kettel – Little Duck, When Is Our Day? (Volleyd Iron, U-Cover)

 

    Yagya – Rigning T?u (Rigning, Sending Orbs)

 

    Proem – The Thread Will Be Torn (Till There’s No Breath Bonus EP, Not On Label)

А вот и ссылка на пост, где вы можете скачать и послушать его: http://reviews.headphonecommute.com/2009/08/30/arrhythmia-sound-favourite-ambient/

P.S. Thank you, Mike, for this great opportunity!

Upd: По просьбам слушателей размещаю содержание cue файла:

REM GENRE mix
REM DATE 2009
REM COMMENT «ExactAudioCopy v0.95b4»
PERFORMER «Arrhythmia Sound»
TITLE «Arrhythmia Sound — Favourite Ambient Tracks»
FILE «Arrhythmia_Sound_-_Favourite_Ambient_Tracks.mp3» MP3
TRACK 01 AUDIO
TITLE «Motoc»
PERFORMER «Loscil»
INDEX 01 00:00:00
TRACK 02 AUDIO
TITLE «Cielo»
PERFORMER «Murcof»
INDEX 01 06:10:00
TRACK 03 AUDIO
TITLE «Amon Velvet»
PERFORMER «Funckarma»
INDEX 01 12:50:00
TRACK 04 AUDIO
TITLE «Never Leave»
PERFORMER «Hecq»
INDEX 01 17:10:00
TRACK 05 AUDIO
TITLE «520 At 8:30»
PERFORMER «Lusine Icl»
INDEX 01 21:45:00
TRACK 06 AUDIO
TITLE «64e Jour»
PERFORMER «Marc Leclair»
INDEX 01 27:20:00
TRACK 07 AUDIO
TITLE «Ouluj?rvi»
PERFORMER «Maps + Diagrams»
INDEX 01 32:21:00
TRACK 08 AUDIO
TITLE «15th Of July»
PERFORMER «Point 7»
INDEX 01 37:37:00
TRACK 09 AUDIO
TITLE «Little Duck, When Is Our Day?»
PERFORMER «Kettel»
INDEX 01 42:27:00
TRACK 10 AUDIO
TITLE «Rigning T?u»
PERFORMER «Yagya»
INDEX 01 46:35:00
TRACK 11 AUDIO
TITLE «The Thread Will Be Torn»
PERFORMER «Proem»
INDEX 01 52:39:00

  • Xone:92

    О,класс — спасибо! А как вобще завязалась дружба с Headphone Commute?

    P.S. А куи можно? Желательно к этому миксу и к парочке предыдущим подкастам )

    • http://www.arrhythmiasound.com/ Quarck

      Xone:92 Дружба завязалась через всем известную социальную сеть lastfm. А cue файл выложу попозже раз есть в нём необходимость :)

  • Xone:92

    Атмосферный микс,но немного не в моём стиле — мне всё таки по душе более мелодичный и светлый ambient )

    • http://www.arrhythmiasound.com/ Quarck

      Xone:92 Позвольте полюбопытствовать, какой эмбиент для Вас «более мелодичный и светлый» ;)?

  • Xone:92

    Светлый эмбиент для меня — это музыка,где на первом месте стоит восхищение природой,красотой,где каждая нотка пропитана любовью и теплотой. Это музыка,облеченная в светлые краски и оттенки,где царят умиротворение и покой. Наверно так :)

    Да,у Вас здесь тоже есть светлые треки — Lusine ICL,Maps + Diagrams,Kettel,Yagya — но по большей части в миксе музыка наполнена напряжение и переживанием.Не чувствуется как-то легкости. Наверно,всё дело в том,что такая музыка давит на меня и я очень сильно «ухожу в себя». Я не готов совершать ежедневно такие вот погружения ) По крайне мере,пока не готов )

    Любимых исполнителей много,но если коротко,то вот:

    Carbon Based Lifeforms — World Of Sleepers (2006)

    Solar Quest — Orgship (1994)

    Solar Fields — Leaving Home (2005)

    Sensorica — The Realm of Fancy (2007) и Quadrivium (2008)

  • http://deftones.ru Алексей

    Дмитрий, это отличный микс. Скачал сразу, да вот только сейчас послушал. Замечательная эмбиент-подборка. На самом деле я тоже привык немного к другому эмбиенту, но эта подборка треков от в общем-то idm-команд как всегда открыла что-то новое. И слушается на одном дыхании.

    Спасибо тебе в очередной раз за твои миксы!

    • http://www.arrhythmiasound.com/ Quarck

      Алексей Очень рад, что Вам понравилось. Надеюсь и дальше радовать и знакомить с интересной музыкой